#TITLE:I love You;
#SUBTITLE:;
#ARTIST:Mighty Mouth & Yoon Eun Hye;
#TITLETRANSLIT:;
#SUBTITLETRANSLIT:;
#ARTISTTRANSLIT:Mighty Mouth & Yoon Eun Hye;
#CREDIT:;
#BANNER:I love You-bn.png;
#BACKGROUND:I love You-bg.png;
#LYRICSPATH:;
#CDTITLE:pm4cd.png;
#MUSIC:I love You.mp3;
#OFFSET:0.080;
#SAMPLESTART:71.036;
#SAMPLELENGTH:20.000;
#SELECTABLE:YES;
#BPMS:0.000=125.010;
#STOPS:;
#BGCHANGES:;
// cache tags:
#FIRSTBEAT:6.750;
#LASTBEAT:504.750;
#SONGFILENAME:Songs/Music V.I.P ^_^/I Love You/I love You.sm;
#HASMUSIC:1;
#HASBANNER:1;
#MUSICLENGTH:242.545;
// end cache tags

//---------------dance-single - ----------------
#NOTES:
     dance-single:
     :
     Hard:
     9:
     0.720,0.624,0.816,0.153,1.000,977.000,198.000,37.000,0.000,43.000:
0000
0000
0000
0000
,
0000
0000
0000
0000
0000
0000
0000
0000
0000
0000
0000
1000
0000
0000
0000
0001
,
0000
0000
0000
0100
0000
0000
0000
0010
0000
0000
0000
1000
0000
0000
0000
0010
,
0000
0100
0000
1001
0000
0000
0000
0000
0000
0020
0000
0000
0000
0000
0000
0000
,
0000
0000
0000
2030
0000
0000
0000
0000
0000
0000
0000
3002
0000
0000
0000
0000
,
0000
0000
0000
1013
0000
0000
0000
0001
0000
0100
0000
1000
0000
0001
0000
0010
,
0000
0000
0000
1001
0000
0000
0000
0100
0000
0010
0000
1000
0000
0001
0000
0100
,
0000
1000
0000
0011
0000
0000
0000
1000
0000
0010
0000
0100
0000
1000
0000
0001
,
0000
0010
0000
1100
0000
0000
0000
0001
0000
0010
0000
1000
0000
0010
0000
0100
,
0001
1000
0010
0101
0000
0000
0000
1000
0000
0010
0000
0100
0000
0001
0000
1000
,
0000
0010
0000
1100
0000
0000
0000
0001
0000
0010
0000
1000
0000
0001
0000
0100
,
0000
0010
0000
1100
0000
0001
0000
0010
0000
1000
0000
0001
0000
0110
0000
1000
,
0000
0011
0000
1100
0000
0010
0000
0001
0000
0110
0000
1000
0000
0101
0000
0010
,
0000
1000
0000
1111
0000
0000
0000
0010
0000
0100
0000
0010
0000
0001
0000
1000
,
0000
0001
0000
1010
0000
0101
0000
1010
0000
0100
0000
0001
0000
0010
0000
0100
,
0000
1000
0000
0110
0000
0100
0000
0010
0000
0100
0000
1000
0000
0001
0000
0010
,
0000
0100
0000
1010
0000
0100
0000
1000
0000
0001
0000
0100
0000
0010
0000
1000
,
0000
0100
0000
1001
0000
0001
0000
1000
0100
0010
0001
0010
0100
1000
0100
0010
,
0001
0010
0000
0110
0000
1001
0000
0110
0000
0001
0000
0010
0000
1000
0000
0100
,
0000
0010
0000
1001
0000
0100
0000
1000
0000
0001
0000
0010
0000
0100
0000
0010
,
0000
0100
0000
0011
0000
1000
0000
0100
0000
0010
0000
1100
0000
0011
0000
1100
,
0000
1100
0000
0111
0000
2001
0000
0010
0000
0100
0000
0000
0000
0010
0000
0001
,
0000
0100
3000
0102
0000
1010
0000
1100
0000
0110
0000
0000
0000
1000
0003
0010
,
0000
0100
0000
1001
0000
0001
0010
0100
0000
1000
0000
0001
0000
0100
0000
0001
,
0000
1000
0000
0011
0000
1000
0100
0010
0000
1000
0100
0001
0000
0100
0000
0010
,
0000
1000
0000
1001
0000
0020
0000
0100
0000
1000
0000
0000
0000
0001
0000
1000
,
0000
0100
0030
2001
0000
0110
0000
0101
0000
0011
0000
0000
0000
0100
0000
0010
,
3000
0001
0000
1100
0000
0010
0000
0100
0000
0001
0000
0010
0000
0001
0000
1000
,
0100
0000
0000
1010
0000
0001
0000
0011
0000
0100
0000
1010
0000
0010
0000
1001
,
0000
0100
0000
0011
0000
0000
0000
0001
0000
0100
0000
1000
0000
0010
0000
0100
,
0000
0010
0000
0101
0000
0000
0010
1100
0000
0001
0000
0010
0000
1000
0000
0001
,
0000
0000
0000
0101
0000
0000
0000
0001
0000
0010
0000
0000
0000
0100
0000
0100
,
0011
0000
0000
1100
0000
0000
1000
0100
0000
1001
0000
0010
0000
0100
0000
0100
,
0001
1000
0010
1001
0000
0000
0000
0001
0000
0010
0000
0100
0000
0001
0000
0100
,
0000
1000
0000
0110
0000
0000
0010
0001
0000
0100
0000
1000
0000
0010
0000
0001
,
0000
0100
0000
1001
0000
0100
0000
0001
0000
0100
0000
0010
0000
0001
0000
1000
,
0101
0000
0000
0110
0000
1000
0000
0100
0000
0010
0000
0002
0000
0010
0000
1000
,
0100
0010
1003
0021
0000
0000
0000
0001
0000
0100
0000
1000
0000
0001
0000
0130
,
0000
1000
0001
0010
0000
1000
0000
0001
0000
1200
0000
0001
0000
1000
0000
0010
,
0000
0001
0000
1310
0000
0000
0000
0100
0000
0000
0000
0001
0000
1000
0000
0001
,
0010
1000
0001
0110
0000
0000
0100
0010
0000
0001
0000
0100
0000
1000
0000
0001
,
0010
1000
0100
0011
0000
0000
0000
0010
0000
0100
0000
0001
0000
1000
0000
0001
,
0000
0010
0000
1001
0000
0000
1000
0100
0000
0001
0000
0010
0000
0100
0000
1001
,
0000
0010
0000
0101
0000
0000
0000
0010
0000
0100
0000
0001
0000
0100
0000
1000
,
0010
0100
0000
0011
0000
0010
0100
0010
0000
0001
0000
0100
0000
0010
0000
0100
,
0010
1000
0001
1010
0000
0001
0000
1000
0000
0100
0000
0001
0000
0100
0000
1000
,
0000
0001
0000
0101
0010
0001
1000
0100
0000
0010
0000
0001
0010
0100
1000
0010
,
0000
0100
0000
0011
0000
0000
0000
1000
0000
0110
0000
0001
0000
1010
0000
0100
,
1000
0000
0000
0011
0000
0100
0000
0101
0000
1000
0000
0010
0000
1000
0000
0001
,
0010
1000
0010
1001
0000
0010
0000
0100
0000
1000
0000
0001
0000
0100
0000
1000
,
0000
0100
0000
0011
0000
0000
0001
0010
0000
2000
0000
0010
0000
0001
0000
0010
,
0000
0100
0000
3011
0100
1000
0100
0010
0000
0100
0000
1000
0000
0101
0000
0100
,
0011
0000
0000
0110
0000
0001
0000
0010
0000
1000
0000
0100
0000
1010
0000
0110
,
0000
0101
0000
1201
0000
0010
0000
0001
0000
1000
0300
0000
0000
0001
0000
0010
,
0000
0100
0000
1002
0000
0100
0000
0010
0000
1000
0003
0000
0000
1000
0000
0100
,
0000
0010
0000
1001
0000
0010
0000
1000
0000
0100
0000
0010
0000
1000
0000
0001
,
0000
0100
0000
0011
0100
1000
0100
0010
0000
0100
0000
0001
0000
1000
0000
0100
,
0000
0001
0000
2010
0000
0100
0000
0010
0000
0001
3000
0000
0000
0100
0000
0010
,
0000
1000
0000
0021
0000
0100
0000
0001
0000
1000
0030
0100
0000
0001
0000
0010
,
0000
0100
0000
1010
0000
1000
0000
0100
0000
0001
0000
1000
0000
0010
0000
0100
,
0000
1000
0000
0101
0000
0010
0000
1100
0000
0010
0000
0101
0000
0010
0000
1001
,
0000
0000
0000
2101
0000
0010
0000
0001
0000
0100
0000
0010
0000
0100
0000
0001
,
0010
0100
0010
3201
0000
0000
0010
1000
0000
0001
0000
0010
0000
1000
0000
0010
,
0000
0001
0000
1320
0000
0100
0000
1000
0000
0001
0000
0100
0000
1000
0000
0001
,
0100
0000
0000
1032
0000
0010
0000
0100
0000
1000
0000
0010
0000
0100
0000
0010
,
0100
1000
0010
2103
0000
0010
0000
0100
0000
0001
0000
0010
0000
0100
0000
0001
,
0100
0001
0010
3201
0000
0000
0010
0001
0000
1000
0000
0010
0000
1000
0000
0010
,
0000
0001
0000
1320
0000
0100
0000
0001
0000
1000
0000
0100
0000
1000
0000
0100
,
0001
0000
0000
1032
0000
0100
0000
0010
0000
1000
0000
0100
0000
0010
0000
0100
,
0100
0100
0100
1103
0000
0000
0000
0010
0000
0100
0000
1000
0000
0010
0000
0001
,
0000
0100
0000
0101
0000
0000
0010
0001
0000
0100
0000
0010
0000
0100
0000
0001
,
0000
0010
0000
1001
0000
0000
0000
1000
0000
0110
0000
0001
0000
1010
0000
0100
,
1000
0000
0000
0110
0000
0001
0000
1010
0000
0100
0000
1000
0000
0001
0000
0010
,
0100
0001
1000
0110
0000
0000
0000
0100
0000
0010
0000
1000
0000
0001
0000
0100
,
0000
1000
0000
0011
0000
0000
0100
1000
0000
0020
0000
1000
0000
0001
0000
0100
,
0000
1000
0000
0131
0000
0000
0000
1000
0000
0100
0000
0001
0000
1010
0000
0010
,
0101
0000
0000
0110
0000
0001
0000
0100
0000
1000
0000
0001
0000
0010
0000
1000
,
0000
0001
0000
1212
0000
1000
0000
0010
0000
1000
0000
0000
0000
0010
0000
1000
,
0010
1000
0010
1313
0000
0101
0000
0000
0000
1010
0000
0000
0000
0100
0000
0010
,
0000
0000
0000
1010
0000
0000
0000
0101
0000
1000
0000
0010
0000
0101
0000
1000
,
0011
0000
0000
1100
0000
0000
0010
0101
0000
1000
0000
0001
0000
0100
0000
1000
,
0000
0010
0000
1100
0000
0010
0000
0001
0000
1000
0000
0100
0000
0010
0000
1000
,
0100
0001
0010
1100
0000
0001
0000
0010
0000
1001
0000
0000
0000
0100
0000
0011
,
0000
0000
0000
1010
0000
0000
0000
0100
0000
0011
0000
0000
0000
1100
0000
0010
,
0101
0000
0000
1010
0000
0000
0100
0011
0000
1100
0000
0011
0000
0100
0000
1000
,
0000
0100
0000
0011
0000
1000
0000
0010
0000
0100
0000
1001
0000
0010
0000
0100
,
0000
0001
0000
1010
0000
0001
0000
0100
0000
1020
0000
0001
0000
0100
0000
1000
,
0000
0001
0000
1130
0000
0000
0000
0010
0000
0101
0000
0000
0000
1100
0000
0001
,
0000
0010
0000
1100
0000
0000
0000
0001
0000
0010
0000
1000
0000
0001
0000
0110
,
0000
1000
0000
0101
0000
1000
0000
0010
0000
0100
0000
0011
0000
1000
0000
0100
,
0000
0001
0000
1010
0000
0100
0000
0001
0000
0010
0000
2210
0000
0001
0000
0010
,
0000
0001
0000
3310
0000
1000
0000
0010
0000
0100
0000
1010
0000
0010
0000
0101
,
0010
1000
0000
0101
0000
1000
0000
0010
0000
0100
0000
0001
0000
1000
0000
0010
,
0100
1000
0001
0110
0000
0000
0000
1000
0000
0100
0000
0001
0000
0010
0000
1000
,
0000
0100
0000
0011
0000
0000
0100
1001
0000
0010
0000
0100
0000
0001
0000
1000
,
0000
0000
0000
0110
0000
0000
0000
1000
0000
0100
0000
0000
0000
0010
0000
0001
,
1100
0000
0000
0101
0000
0000
0010
0100
0000
1010
0000
0001
0000
0100
0000
0010
,
1000
0001
0100
1010
0000
0000
0000
0100
0000
0001
0000
1000
0000
0010
0000
0100
,
0000
0001
0000
1010
0000
0000
0100
0010
0000
0001
0000
1000
0000
0010
0000
0100
,
0000
0010
0000
1001
0000
0100
0000
0010
0000
1000
0000
0001
0000
0100
0000
0010
,
1001
0000
0000
0110
0000
0001
0000
1000
0000
0010
0000
0201
0000
0010
0000
1000
,
0010
0001
1000
0321
0000
0000
0000
1000
0000
0100
0000
0001
0000
0100
0000
1030
,
0001
0100
0010
1000
0000
0001
0000
0100
0000
0010
0000
2100
0000
0001
0000
0100
,
0000
0010
0000
3100
0000
0000
0000
0010
0000
0000
0000
1000
0000
0001
0000
0100
,
1000
0001
0010
1100
0000
0000
0010
0001
0000
0100
0000
1000
0000
0001
0000
0100
,
0010
1000
0001
0110
0000
0000
0000
1000
0000
0001
0000
0100
0000
0001
0000
1000
,
0000
0010
0000
1100
0000
0000
0001
0100
0000
0010
0000
0100
0000
0001
0000
1010
,
0000
0100
0000
0011
0000
0000
0000
1000
0000
0100
0000
0001
0000
0010
0000
1000
,
0001
0100
0000
1010
0000
0001
0100
0001
0000
1000
0000
0010
0000
0100
0000
0001
,
1000
0010
0100
0011
0000
0000
0000
1000
0000
0100
0000
0001
0000
1000
0000
0010
,
0000
0100
0000
0011
0000
0000
1000
0100
0000
0010
0000
0001
0000
1000
0000
0010
,
0000
0100
0000
1010
0000
0000
0000
0100
0000
0011
0000
1000
0000
0110
0000
0001
,
1000
0000
0000
0011
0000
0100
0000
1100
0000
0001
0000
0010
0000
1000
0000
0001
,
0100
1000
0010
0101
0000
0000
0000
0010
0000
1000
0000
0001
0000
0100
0000
0010
,
0000
1000
0000
0101
0000
0000
1000
0010
0000
0200
0000
1000
0000
0001
0000
0010
,
0000
1000
0000
0311
0000
0010
0000
1000
0000
0100
0000
0000
0000
0011
0000
1000
,
0110
0000
0000
0011
0000
1000
0000
0100
0000
0001
0000
0010
0000
1000
0000
0001
,
0000
0100
0000
2101
0000
0000
0000
0010
0000
0100
0000
0001
0000
0010
0000
0100
,
0000
0001
0000
3112
0000
0000
1000
0100
0000
0010
0000
0000
0000
1000
0000
0010
,
0000
0100
0000
1103
0000
0000
0000
0001
0000
0010
0000
1000
0000
0001
0000
0100
,
0000
0010
0000
1010
0000
0100
0000
0001
0000
0100
0000
0010
0000
1000
0000
0001
,
0000
1000
0000
0101
0000
0000
0000
1000
0000
0010
0000
0001
0000
1000
0000
0010
,
0000
0100
0000
1010
0000
0000
0001
0100
0000
1000
0000
0100
0000
0010
0000
0001
,
0000
0100
0000
1010
0000
0100
0000
0001
0000
1000
0000
0010
0000
1100
0000
0000
,
0001
0010
0000
0101
0000
1000
0000
0010
0000
0100
0000
1000
0000
0001
0000
0010
,
0000
0100
0000
2020
0000
0000
0000
0000
0000
0000
0000
0000
0000
0000
0000
0000
,
0000
0000
0000
3030
0000
0000
0000
0000
0000
0000
0000
0000
0000
0000
0000
0000
;
